Marathi Movi Torrant Downnloadeleasysite

Posted : admin On 8/22/2021
  1. Latest Marathi Movie Download Torrent
  2. Marathi Movies Download Mp4
  3. New Marathi Movies Download
Downnloadeleasysite

Latest Marathi Movie Download Torrent

Marathi Movi Torrant Downnloadeleasysite

Marathi Movies Download Mp4

Marathi Movies Download Sites– It may not be the best in the world at the moment, but one cannot deny that over the years, we have seen the craft being preserved by mavens who have richly contributed to the film industry. We have generations of directors/actors/writers who have given us something to be proud of for years to come. If you want to check out the latest showtimes, movie trailers. Vip marathi movies net, vipmarathi movie in, classmates marathi ofilmywap com, Filmyzilla in marathi movie dowanload, Bollyshare Com2015, www vipmarathi movie com, new marathi movie download 2015, all marathi movie 2015 download, filmyzilla marthi movie com, vip marathi movie in, marathi vip movies in, v i p marathi Movie dow, Full hd marathi move vip downlod, filmyzilla marathi movie.

New Marathi Movies Download


General
Complete name : Doctor Doctor (2020) Marathi HDRip x264 AAC ESub By Full4Movies.mkv
Format : Matroska
Format version : Version 4
File size : 1 003 MiB
Duration : 1 h 58 min
Overall bit rate : 1 186 kb/s
Encoded date : UTC 2020-10-31 15:46:52
Writing application : mkvmerge v8.0.0 ('Til The Day That I Die') 32bit
Writing library : libebml v1.3.1 + libmatroska v1.4.2
Video
ID : 1
Format : AVC
Format/Info : Advanced Video Codec
Format profile : [email protected]
Format settings : CABAC / 4 Ref Frames
Format settings, CABAC : Yes
Format settings, Reference fra : 4 frames
Codec ID : V_MPEG4/ISO/AVC
Duration : 1 h 58 min
Bit rate : 1 100 kb/s
Width : 1 280 pixels
Height : 540 pixels
Display aspect ratio : 2.40:1
Frame rate mode : Constant
Frame rate : 30.000 FPS
Color space : YUV
Chroma subsampling : 4:2:0
Bit depth : 8 bits
Scan type : Progressive
Bits/(Pixel*Frame) : 0.053
Stream size : 919 MiB (92%)
Writing library : x264 core 157 r2935 545de2f
Default : Yes
Forced : No
Color range : Limited
Color primaries : BT.709
Transfer characteristics : BT.709
Matrix coefficients : BT.709
Audio
ID : 2
Format : AAC LC
Format/Info : Advanced Audio Codec Low Complexity
Codec ID : A_AAC-2
Duration : 1 h 58 min
Bit rate : 96.0 kb/s
Channel(s) : 2 channels
Channel layout : L R
Sampling rate : 48.0 kHz
Frame rate : 46.875 FPS (1024 SPF)
Compression mode : Lossy
Delay relative to video : -21 ms
Stream size : 81.4 MiB (8%)
Language : Marathi
Default : Yes
Forced : No
Text
ID : 3
Format : UTF-8
Codec ID : S_TEXT/UTF8
Codec ID/Info : UTF-8 Plain Text
Duration : 1 h 54 min
Bit rate : 52 b/s
Count of elements : 1845
Stream size : 44.4 KiB (0%)
Language : English
Default : No
Forced : No
Screen Shoots
Hand up emoji.